Results 1 to 6 of 6

Thread: Sidekick LX2009/Sharp Jump/PV300GR Video Playback

  1. #1
    Join Date
    Dec 2011
    Location
    Netherlands
    Posts
    12
    Carrier(s)
    T-Mobile
    Feedback Score
    0

    Sidekick LX2009/Sharp Jump/PV300GR Video Playback

    Hello,

    I have a Sharp PV300GR also know as the Sharp Jump (modified T-mobile Sidekick LX 2009)

    While the T-Mobile Sidekick LX 2009 was no longer sold from July 2, 2010 onwards, modified versions of the device have been available for sale since. In Canada, carrier Mobilicity began selling the device under the name "Mobiflip" and the model number PV300G in late December 2010. In the United States, regional carrier Cincinnati Bell began selling the "Sharp Jump", model number PV300GC, in early 2011. Both devices have a modified version of the Danger OS installed, although any mention of Danger has been removed. This modified OS is independent of any backend service, and the original Danger Web browser, Instant Messaging and Email applications have been removed. The Web browser was replaced with Opera Mini whereas the Instant Messaging clients were replaced with one universal client which also allows the user to connect to an IM service through an XMPP server. There is no email client installed, and there is no Catalog service available.
    I'm trying to put video's on it but it doesn't work for me I always get the notification that the codec or file is not supported by the device.

    I can't find information on what codecs I must use (only 3gp and mp4, but not about the codecs itself) the only thing I'm sure about it is that mp4 works, mpeg-4 video and amr audio, but the problem is I can't find a converter that put mpeg-4 and amr in a mp4 file

    Here is the video file I recorded with my sidekick (use mpc-hc or vlc or a player like that for codec information)http://www.mediafire.com/?rw33zl6b0xo9vkp



    Thanks,

  2. #2
    Join Date
    Dec 2011
    Location
    Netherlands
    Posts
    12
    Carrier(s)
    T-Mobile
    Feedback Score
    0
    I have managed to play the files but I have a strange problem:
    www.youtube.com/watch?v=rMJkgB2oEmQ
    www.youtube.com/watch?v=rMJkgB2oEmQ

    The video is 320x240 (640x480 is not supported even though the screen is 854x480, I haven't tried 480x360)
    Last edited by enfyulfur; 01-08-2012 at 09:04 AM.
    Phones I've had: Sony CM-DX1000 | Panasonic EB-G450 | Sony Ericsson T100 | Sendo Swing 630 | Sharp GX10 | Sony Ericsson K750i | Sony Ericsson S500i | Nokia N73 | Softbank 740SC | Sharp PV300GR | DoCoMo F902i | HTC Desire S

  3. #3
    Join Date
    Dec 2011
    Location
    Netherlands
    Posts
    12
    Carrier(s)
    T-Mobile
    Feedback Score
    0
    Code:
    General
    Complete name                  : C:\OutputFolder\Wolf's Rain 01_1.mp4
    Format                         : MPEG-4
    Format profile                 : Base Media
    Codec ID                       : isom
    File size                      : 74.0 MiB
    Duration                       : 21mn 50s
    Overall bit rate mode          : Variable
    Overall bit rate               : 474 Kbps
    Writing application            : Lavf52.34.0
    
    Video
    ID                             : 1
    Format                         : MPEG-4 Visual
    Format profile                 : [email protected]
    Format settings, BVOP          : No
    Format settings, QPel          : No
    Format settings, GMC           : No warppoints
    Format settings, Matrix        : Default (H.263)
    Codec ID                       : 20
    Duration                       : 21mn 50s
    Bit rate                       : 318 Kbps
    Width                          : 480 pixels
    Height                         : 360 pixels
    Display aspect ratio           : 4:3
    Frame rate mode                : Constant
    Frame rate                     : 23.976 fps
    Color space                    : YUV
    Chroma subsampling             : 4:2:0
    Bit depth                      : 8 bits
    Scan type                      : Progressive
    Compression mode               : Lossy
    Bits/(Pixel*Frame)             : 0.077
    Stream size                    : 49.6 MiB (67%)
    Writing library                : Lavc52.30.1
    
    Audio
    ID                             : 2
    Format                         : AAC
    Format/Info                    : Advanced Audio Codec
    Format profile                 : LC
    Codec ID                       : 40
    Duration                       : 21mn 50s
    Bit rate mode                  : Variable
    Bit rate                       : 152 Kbps
    Channel(s)                     : 2 channels
    Channel positions              : Front: L R
    Sampling rate                  : 44.1 KHz
    Compression mode               : Lossy
    Stream size                    : 23.7 MiB (32%)
    This video work, it's a bit tricky with resolutions, 480x360 4:3 works (don't go up or it wont work)
    I'm going to test 16:9 now

  4. #4
    Join Date
    Dec 2011
    Location
    Netherlands
    Posts
    12
    Carrier(s)
    T-Mobile
    Feedback Score
    0
    480x272 16:9 works widescreen without letterbox
    3gp and mp4
    H.263 video
    AAC audio

    I hope everything in my one mans thread is useful for people with sidekicks

    (I used Ultra MKV Converter, I also recommend Xilisoft Video Converter Ultimate)

  5. #5
    Join Date
    Oct 2004
    Location
    US
    Posts
    121
    Carrier(s)
    VMUSA
    Feedback Score
    0
    Thanks for the help! Now my (New) Sidekick '09 is a bit more useful!

  6. #6
    Join Date
    Dec 2011
    Location
    Netherlands
    Posts
    12
    Carrier(s)
    T-Mobile
    Feedback Score
    0
    Quote Originally Posted by t.d View Post
    Thanks for the help! Now my (New) Sidekick '09 is a bit more useful!
    I'm happy that my adventure with codecs on the sidekick helped you

Similar Threads

  1. full screen video playback?
    By feverboy in forum Symbian/S60
    Replies: 5
    Last Post: 12-11-2004, 02:53 AM
  2. v300 video playback? firmware update...?
    By Arithmetic in forum Motorola
    Replies: 15
    Last Post: 12-04-2003, 02:34 PM
  3. Video playback on phone?
    By 0ldyeller in forum Nokia
    Replies: 1
    Last Post: 08-27-2003, 10:16 PM
  4. Replies: 1
    Last Post: 07-25-2003, 02:35 AM
  5. 3650 Video Playback - How?
    By cyberhh in forum Symbian/S60
    Replies: 8
    Last Post: 04-21-2003, 12:44 PM

Tags for this Thread

Bookmarks